Перейти из форума на сайт.

НовостиФайловые архивы
ПоискАктивные темыТоп лист
ПравилаКто в on-line?
Вход Забыли пароль? Первый раз на этом сайте? Регистрация
Компьютерный форум Ru.Board » Компьютеры » Программы » Matroska .mkv | MKVToolnix | Haali Media Spliter

Модерирует : gyra, Maz

 Версия для печати • ПодписатьсяДобавить в закладки
Страницы: 1 2 3 4 5 6 7 8 9 10 11 12 13 14 15 16 17 18 19 20 21 22 23 24 25 26 27 28 29 30 31 32 33 34 35 36 37 38 39 40 41 42 43 44 45 46 47 48 49 50 51 52 53 54 55 56 57 58 59 60 61 62 63 64 65 66 67 68 69 70 71 72 73 74 75 76 77 78 79 80 81 82 83 84 85 86 87 88 89 90 91 92 93 94 95 96 97 98 99 100 101 102 103 104 105 106 107 108 109 110 111

Открыть новую тему     Написать ответ в эту тему

Gnynblaid

Newbie
Редактировать | Профиль | Сообщение | Цитировать | Сообщить модератору
«Матрёшка» (Matroska по-англ., MKV) — продвинутый контейнер, который может содержать большое число потоков аудио, видео и субтитров, позволяя пользователю хранить в одном файле целый фильм. Отличается от AVI поддержкой современных форматов видео (H264 и др.) и аудио (AC3, AAC, DTS и др.), субтитров и пр.
 

 
Воспроизведение:
Почти все современные плееры умеют работать с MKV -> MPC-HC, MPC-BE, PotPlayer.
Haali Media Splitter - DirectShow сплиттер для MKV и прочего.
MediaInfo — программа для получения характеристик видео и аудио-потоков (какой кодек, битрейт, количество потоков и т.д.)
 
Редактирование:
MKVToolnix: добавление/удаление/извлечение потоков, резка и многое другое: Работа с контейнером MKV + еще
gMKVExtractGUI - графический интерфейс для mkvextract (входит в состав MKVToolNix), предназначен для вытаскивания дорожек из MKV файлов.
PS: Еще есть утилита MKVExtractGUI-2 (русская версия от Uncle KILLER), которую не рекомендуется использовать, т.к. с ней много проблем.
 
mkv2vob умеет перепаковывать из MKV в MPG, VOB, m2ts, AVI, MP4 без перекодировки.
AutoMKV конвертирует файлы IFO, MKV, MP4, MOV, AVI, MPEG в файлы-контейнеры AVI, MKV, MP4 и WMV
MKV Chapterizer - добавляет главы к MKV.  
Как быстро вложить изображение в mkv?  
 

Всего записей: 31 | Зарегистр. 24-06-2003 | Отправлено: 06:19 31-07-2004 | Исправлено: Maz, 14:25 05-04-2021
q111111

Advanced Member
Редактировать | Профиль | Сообщение | Цитировать | Сообщить модератору
а есть какой-либо простой инструмент, типа AutoGuardianKnot, что бы делал "Матрёшку" H264 из DVD. уточню что пробовал программами из шапки - или руки кривые или что-то не так делаю - выдаёт ошибку и ничего не создаёт

Всего записей: 1638 | Зарегистр. 05-03-2008 | Отправлено: 15:09 02-02-2010
pop2ROOT



Gold Member
Редактировать | Профиль | Сообщение | Цитировать | Сообщить модератору
q111111
HandBrake офигенная и простая вещь.  
И русский есть.

----------
Купить биткоин, Ethereum, Dash, Zcash, Ripple с банковской карты (лучшая биржа)

Всего записей: 8944 | Зарегистр. 13-09-2004 | Отправлено: 15:55 02-02-2010
q111111

Advanced Member
Редактировать | Профиль | Сообщение | Цитировать | Сообщить модератору
pop2ROOT

Цитата:
HandBrake  офигенная и простая вещь.

а для его работы не нужен дополнительный софт? например AviSynth...

Всего записей: 1638 | Зарегистр. 05-03-2008 | Отправлено: 12:04 03-02-2010
pop2ROOT



Gold Member
Редактировать | Профиль | Сообщение | Цитировать | Сообщить модератору
q111111
нет, не нужен. Почитал бы в яндексе, там все написано

----------
Купить биткоин, Ethereum, Dash, Zcash, Ripple с банковской карты (лучшая биржа)

Всего записей: 8944 | Зарегистр. 13-09-2004 | Отправлено: 12:10 03-02-2010
q111111

Advanced Member
Редактировать | Профиль | Сообщение | Цитировать | Сообщить модератору
pop2ROOT

Цитата:
нет, не нужен. Почитал бы в яндексе, там все написано

так я не только читал, но даже пробовал им пользоваться - ничего не получается

Всего записей: 1638 | Зарегистр. 05-03-2008 | Отправлено: 14:54 03-02-2010
pop2ROOT



Gold Member
Редактировать | Профиль | Сообщение | Цитировать | Сообщить модератору
q111111
а что именно не получается? Давайте перейдем в его тему и вы там подробнее расскажете.
я рекомендовал HandBrake именно потому, что сам неоднократно им пользовался.

----------
Купить биткоин, Ethereum, Dash, Zcash, Ripple с банковской карты (лучшая биржа)

Всего записей: 8944 | Зарегистр. 13-09-2004 | Отправлено: 15:18 03-02-2010
Lestad14

Newbie
Редактировать | Профиль | Сообщение | Цитировать | Сообщить модератору
Возникла проблема: VirtualDub обрабатывает видео до 15-17% и на этом дело заканчивается

Всего записей: 5 | Зарегистр. 18-01-2010 | Отправлено: 20:03 13-02-2010
euheny



Silver Member
Редактировать | Профиль | Сообщение | Цитировать | Сообщить модератору
q111111

Цитата:
пробовал программами из шапки - или руки кривые или что-то не так делаю - выдаёт ошибку и ничего не создаёт

добавил авидемукс

Всего записей: 3925 | Зарегистр. 22-11-2006 | Отправлено: 03:07 14-02-2010 | Исправлено: euheny, 03:08 14-02-2010
Gideon Vi

Gold Member
Редактировать | Профиль | Сообщение | Цитировать | Сообщить модератору

Цитата:
Возникла проблема: VirtualDub обрабатывает видео до 15-17% и на этом дело заканчивается

VirtualDub

----------
Cyberpunk 2077

Всего записей: 7278 | Зарегистр. 02-02-2004 | Отправлено: 08:46 14-02-2010
ndch

Gold Member
Редактировать | Профиль | Сообщение | Цитировать | Сообщить модератору
Стянуто
 
Haali Media Splitter
 

Код:
Версия 19/12/2009 1.9.355.21 (ts.dll)
1. VC-1 в TS перестал поддерживаться.  
2. DTS-HD в TS перестал поддерживаться.

Всего записей: 5206 | Зарегистр. 31-08-2008 | Отправлено: 23:04 14-02-2010
goFRyS



Junior Member
Редактировать | Профиль | Сообщение | Цитировать | Сообщить модератору
Подскажите пожалуйста, скачал MKV 4.3Gb а у него на 12-й минуте видео битое несколько секунд, в итоге при просмотре нужно перематывать вручную при подходе к 12-й минуте , при попытке распаковать файл с помощью mkvmerge, тоже самое, 12 минут и конец! Вопрос: чем можно без перекодирования вырезать этот кусок? Или обязательно кодировать? Пробовал VirtualDubMod, так он при сохранении Directstream Copy в MKV выдает размер файла за 200 Gb! Меня это не устраивает, что ж это за прямопотоковое копирование...

Всего записей: 34 | Зарегистр. 15-06-2006 | Отправлено: 02:21 02-03-2010
HelioSS



Silver Member
Редактировать | Профиль | Сообщение | Цитировать | Сообщить модератору
иМЕется mkv-файл:
 
Format                           : Matroska
File size                        : 9.91 GiB
Duration                         : 1h 53mn
Overall bit rate                 : 12.5 Mbps
 
Video
ID                               : 1
Format                           : MPEG Video
Format version                   : Version 2
Format profile                   : Main@High
Format settings, Matrix          : Default
Codec ID                         : V_MPEG2
Codec ID/Info                    : MPEG 1 or 2 Video
Duration                         : 1h 53mn
Bit rate mode                    : Variable
Bit rate                         : 11.0 Mbps
Nominal bit rate                 : 25.0 Mbps
Width                            : 1 920 pixels
Height                           : 1 080 pixels
Display aspect ratio             : 16/9
Frame rate                       : 29.970 fps
Colorimetry                      : 4:2:0
Scan type                        : Interlaced
Scan order                       : Top Field First
Bits/(Pixel*Frame)               : 0.178
Stream size                      : 8.75 GiB (88%)
 
Audio #1
ID                               : 2
Format                           : DTS
Format/Info                      : Digital Theater Systems
Codec ID                         : A_DTS
Duration                         : 1h 53mn
Bit rate mode                    : Constant
Bit rate                         : 755 Kbps
Channel(s)                       : 6 channels
Channel positions                : Front: L C R, Surround: L R, LFE
Sampling rate                    : 48.0 KHz
Resolution                       : 24 bits
Stream size                      : 612 MiB (6%)
 
кАКим бы плеером не воспроизводил - сильно поддтормаживает.
 
Компьютер:
 
Операционная система                              Microsoft Windows XP Professional
Пакет обновления ОС                               Service Pack 3
DirectX                                           4.09.00.0904 (DirectX 9.0c)
 
Системная плата:
Тип ЦП                                            DualCore Intel Core 2 Duo E6750, 2666 MHz (8 x 333)
Системная плата                              Gigabyte GA-P35-DS3L
Системная память                            2048 Мб  (DDR2-800 DDR2 SDRAM)
Видеоадаптер                                      ATI Radeon HD 5700 Series  (1024 Мб)
Монитор                                           BenQ FP93GP (Digital)  [19" LCD]  (17247077)
Звуковой адаптер                                  Realtek ALC888/1200 @ Intel 82801IB ICH9 - High Definition Audio Controller [A-2]
Дисковый накопитель                               WDC WD2500AAKS-00VSA0  (232 Гб, IDE)
Дисковый накопитель                               WDC WD3202ABYS-01B7A0  (298 Гб, IDE)

Всего записей: 4988 | Зарегистр. 26-11-2007 | Отправлено: 15:08 08-03-2010
pop2ROOT



Gold Member
Редактировать | Профиль | Сообщение | Цитировать | Сообщить модератору
HelioSS
файл тяжелый, сам видишь - битрейт громадный, формат большой, не тянет машинка. Попробуй CoreAVC поставить и через него пустить - может помочь, хотя не факт.

----------
Купить биткоин, Ethereum, Dash, Zcash, Ripple с банковской карты (лучшая биржа)

Всего записей: 8944 | Зарегистр. 13-09-2004 | Отправлено: 15:53 08-03-2010
Abs62



Gold Member
Редактировать | Профиль | Сообщение | Цитировать | Сообщить модератору
pop2ROOT

Цитата:
битрейт громадный, формат большой

Он ещё и интерлейсный.

----------
0 программистов ругал сердитый шеф
Потом уволил одного, и стало их FF

Всего записей: 5945 | Зарегистр. 22-10-2005 | Отправлено: 16:01 08-03-2010
HelioSS



Silver Member
Редактировать | Профиль | Сообщение | Цитировать | Сообщить модератору
pop2ROOT
Abs62
А чо тогда получается - машина не "HD ready"? BR-ДИСКИ на ней не пойдут?

Всего записей: 4988 | Зарегистр. 26-11-2007 | Отправлено: 16:05 08-03-2010
pop2ROOT



Gold Member
Редактировать | Профиль | Сообщение | Цитировать | Сообщить модератору
HelioSS
хрен их знает, пойдут не пойдут   этот вопрос точно не для данного топика. Спроси в Железе у обладателей таких же видюх, как у тебя - вроде должна быть аппаратная поддержка HD-форматов у них.
 
Добавлено:
у тебя по ходу монитор не "HD ready"   может комп пытается уменьшить картинку чтоб влезла в экран и потому перенарягается, х.е.з.

----------
Купить биткоин, Ethereum, Dash, Zcash, Ripple с банковской карты (лучшая биржа)

Всего записей: 8944 | Зарегистр. 13-09-2004 | Отправлено: 16:23 08-03-2010
euheny



Silver Member
Редактировать | Профиль | Сообщение | Цитировать | Сообщить модератору
HelioSS

Цитата:
кАКим бы плеером не воспроизводил - сильно поддтормаживает.

HDD не справляется
очистка, дефрагментация и т.д.

Всего записей: 3925 | Зарегистр. 22-11-2006 | Отправлено: 01:37 09-03-2010
Crusader3000



Advanced Member
Редактировать | Профиль | Сообщение | Цитировать | Сообщить модератору
goFRyS, а параметры своего компьютера можете сообщить?

Всего записей: 1069 | Зарегистр. 07-02-2005 | Отправлено: 13:56 11-03-2010
astorio

Newbie
Редактировать | Профиль | Сообщение | Цитировать | Сообщить модератору
Имеется файл
 
Format                           : Matroska
File size                        : 4.37 GiB
Duration                         : 1h 31mn
Overall bit rate                 : 6 856 Kbps
Encoded date                     : UTC 2008-02-28 09:48:52
Writing application              : mkvmerge v2.1.0 ('Another Place To Fall') built on Aug 19 2007 13:40:07
Writing library                  : libebml v0.7.7 + libmatroska v0.8.1
 
Video
ID                               : 1
Format                           : AVC
Format/Info                      : Advanced Video Codec
Format profile                   : High@L5.1
Format settings, CABAC           : Yes
Format settings, ReFrames        : 4 frames
Muxing mode                      : Container profile=Unknown@5.1
Codec ID                         : V_MPEG4/ISO/AVC
Duration                         : 1h 31mn
Bit rate                         : 6 272 Kbps
Nominal bit rate                 : 6 405 Kbps
Width                            : 1 280 pixels
Height                           : 720 pixels
Display aspect ratio             : 16:9
Frame rate                       : 23.976 fps
Resolution                       : 8 bits
Colorimetry                      : 4:2:0
Scan type                        : Progressive
Bits/(Pixel*Frame)               : 0.284
Stream size                      : 3.99 GiB (91%)
Writing library                  : x264 core 58 svn-736M
Encoding settings                : cabac=1 / ref=4 / deblock=1:-2:-2 / analyse=0x3:0x133 / me=umh / subme=7 / me-prepass=0 / brdo=1 / mixed_ref=1 / me_range=16 / chroma_me=1 / trellis=1 / 8x8dct=1 / cqm=2 / deadzone=6,4 / chroma_qp_offset=0 / threads=3 / nr=0 / decimate=0 / mbaff=0 / bframes=4 / b_pyramid=1 / b_adapt=1 / b_bias=0 / direct=3 / wpredb=1 / bime=1 / keyint=250 / keyint_min=25 / scenecut=40(pre) / rc=2pass / bitrate=6405 / ratetol=1.0 / rceq='blurCplx^(1-qComp)' / qcomp=1.00 / qpmin=10 / qpmax=51 / qpstep=4 / cplxblur=20.0 / qblur=0.5 / ip_ratio=1.40 / pb_ratio=1.30 / aq=1:0.6:12.0
Language                         : English
 
Audio
ID                               : 2
Format                           : AC-3
Format/Info                      : Audio Coding 3
Codec ID                         : A_AC3
Duration                         : 1h 31mn
Bit rate mode                    : Constant
Bit rate                         : 448 Kbps
Channel(s)                       : 6 channels
Channel positions                : Front: L C R, Surround: L R, LFE
Sampling rate                    : 48.0 KHz
Stream size                      : 292 MiB (7%)
 
При попытке его открытия проигрываетелем(VLC) он играет минуту 21 секунду а дальше не проигрывает(ползунок сразу перескакивает на конец). Пробовал открыть через VirtualDubMod , программа зависает(ждал час пока отвиснет? так и не отвисла, снял задачу), анологично MKVToolnix. Подскажите пожалуйста в чем может быть проблема и как ее решить?

Всего записей: 2 | Зарегистр. 15-03-2010 | Отправлено: 15:22 15-03-2010
Prudent

Advanced Member
Редактировать | Профиль | Сообщение | Цитировать | Сообщить модератору
astorio
Скорее всего проблема в самом файле. Вероятно, после минуты и 21 секунду в нем отсутствует часть, или все данные, т.е. он битый, или недокаченный.

Всего записей: 654 | Зарегистр. 19-01-2006 | Отправлено: 15:39 15-03-2010 | Исправлено: Prudent, 15:41 15-03-2010
Открыть новую тему     Написать ответ в эту тему

Страницы: 1 2 3 4 5 6 7 8 9 10 11 12 13 14 15 16 17 18 19 20 21 22 23 24 25 26 27 28 29 30 31 32 33 34 35 36 37 38 39 40 41 42 43 44 45 46 47 48 49 50 51 52 53 54 55 56 57 58 59 60 61 62 63 64 65 66 67 68 69 70 71 72 73 74 75 76 77 78 79 80 81 82 83 84 85 86 87 88 89 90 91 92 93 94 95 96 97 98 99 100 101 102 103 104 105 106 107 108 109 110 111

Компьютерный форум Ru.Board » Компьютеры » Программы » Matroska .mkv | MKVToolnix | Haali Media Spliter


Реклама на форуме Ru.Board.

Powered by Ikonboard "v2.1.7b" © 2000 Ikonboard.com
Modified by Ru.Board
© Ru.Board 2000-2020

BitCoin: 1NGG1chHtUvrtEqjeerQCKDMUi6S6CG4iC

Рейтинг.ru