Перейти из форума на сайт.

НовостиФайловые архивы
ПоискАктивные темыТоп лист
ПравилаКто в on-line?
Вход Забыли пароль? Первый раз на этом сайте? Регистрация
Компьютерный форум Ru.Board » Компьютеры » Программы » FFmpeg

Модерирует : gyra, Maz

 Версия для печати • ПодписатьсяДобавить в закладки
На первую страницук этому сообщениюк последнему сообщению

Открыть новую тему     Написать ответ в эту тему

Serg2018nova

Newbie
Редактировать | Профиль | Сообщение | Цитировать | Сообщить модератору
Загрузку CPU 5 - 7 процентов.  
У Камеры D-Link DCS-932L болячка звук отваливаетса
через 30 секунд.
 
C:\ffmpeg\bin\ffmpeg.exe -i "http://admin:2018@192.168.1.7/video".
cgi -i "http://admin:2018@192.168.1.7/audio.cgi" -vcodec mpeg4 -tune zerolatency -
preset ultrafast -f mpegts "udp://192.168.1.4:8080"
ffmpeg version N-89674-g57d0c24132 Copyright (c) 2000-2018 the FFmpeg developers
 
  built with gcc 7.2.0 (GCC)
  configuration: --enable-gpl --enable-version3 --enable-sdl2 --enable-bzlib --e
nable-fontconfig --enable-gnutls --enable-iconv --enable-libass --enable-libblur
ay --enable-libfreetype --enable-libmp3lame --enable-libopencore-amrnb --enable-
libopencore-amrwb --enable-libopenjpeg --enable-libopus --enable-libshine --enab
le-libsnappy --enable-libsoxr --enable-libtheora --enable-libtwolame --enable-li
bvpx --enable-libwavpack --enable-libwebp --enable-libx264 --enable-libx265 --en
able-libxml2 --enable-libzimg --enable-lzma --enable-zlib --enable-gmp --enable-
libvidstab --enable-libvorbis --enable-libvo-amrwbenc --enable-libmysofa --enabl
e-libspeex --enable-amf --enable-cuda --enable-cuvid --enable-d3d11va --enable-n
venc --enable-dxva2 --enable-avisynth --enable-libmfx
  libavutil      56.  7.100 / 56.  7.100
  libavcodec     58.  9.100 / 58.  9.100
  libavformat    58.  3.100 / 58.  3.100
  libavdevice    58.  0.100 / 58.  0.100
  libavfilter     7.  8.100 /  7.  8.100
  libswscale      5.  0.101 /  5.  0.101
  libswresample   3.  0.101 /  3.  0.101
  libpostproc    55.  0.100 / 55.  0.100
Input #0, mpjpeg, from 'http://admin:2018@192.168.1.7/video.cgi':
  Duration: N/A, bitrate: N/A
    Stream #0:0: Video: mjpeg, yuvj422p(pc, bt470bg/unknown/unknown), 640x480, 2
5 tbr, 25 tbn, 25 tbc
Guessed Channel Layout for Input Stream #1.0 : mono
Input #1, wav, from 'http://admin:2018@192.168.1.7/audio.cgi':
  Duration: N/A, bitrate: 256 kb/s
    Stream #1:0: Audio: pcm_s16le ([1][0][0][0] / 0x0001), 16000 Hz, mono, s16,
256 kb/s
Codec AVOption tune (Tune the encoding to a specific scenario) specified for out
put file #0 (udp://192.168.1.4:8080) has not been used for any stream. The most
likely reason is either wrong type (e.g. a video option with no video streams) o
r that it is a private option of some encoder which was not actually used for an
y stream.
Codec AVOption preset (Configuration preset) specified for output file #0 (udp:/
/192.168.1.4:8080) has not been used for any stream. The most likely reason is e
ither wrong type (e.g. a video option with no video streams) or that it is a pri
vate option of some encoder which was not actually used for any stream.
Stream mapping:
  Stream #0:0 -> #0:0 (mjpeg (native) -> mpeg4 (native))
  Stream #1:0 -> #0:1 (pcm_s16le (native) -> mp2 (native))
Press [q] to stop, [?] for help
[swscaler @ 0000000002b900c0] deprecated pixel format used, make sure you did se
t range correctly
Output #0, mpegts, to 'udp://192.168.1.4:8080':
  Metadata:
    encoder         : Lavf58.3.100
    Stream #0:0: Video: mpeg4, yuv420p(progressive), 640x480, q=2-31, 200 kb/s,
25 fps, 90k tbn, 25 tbc
    Metadata:
      encoder         : Lavc58.9.100 mpeg4
    Side data:
      cpb: bitrate max/min/avg: 0/0/200000 buffer size: 0 vbv_delay: -1
    Stream #0:1: Audio: mp2, 16000 Hz, mono, s16, 160 kb/s
    Metadata:
      encoder         : Lavc58.9.100 mp2
frame=   13 fps=0.0 q=3.5 size=      93kB time=00:00:00.68 bitrate=1100.9kbits/s
frame=   24 fps= 23 q=4.3 size=     116kB time=00:00:01.12 bitrate= 844.5kbits/s
frame=   33 fps= 21 q=4.8 size=     152kB time=00:00:01.33 bitrate= 933.0kbits/s
frame=   40 fps= 19 q=5.2 size=     186kB time=00:00:01.69 bitrate= 898.2kbits/s
frame=   49 fps= 18 q=3.9 size=     200kB time=00:00:01.98 bitrate= 825.5kbits/s
frame=   57 fps= 18 q=5.4 size=     230kB time=00:00:02.34 bitrate= 802.0kbits/s
frame=   66 fps= 17 q=5.3 size=     261kB time=00:00:02.63 bitrate= 810.8kbits/s
frame=   74 fps= 17 q=5.4 size=     290kB time=00:00:02.99 bitrate= 792.7kbits/s
frame=   82 fps= 17 q=5.3 size=     301kB time=00:00:03.28 bitrate= 752.0kbits/s
frame=   90 fps= 17 q=5.6 size=     330kB time=00:00:03.64 bitrate= 741.7kbits/s
frame=   98 fps= 17 q=5.5 size=     360kB time=00:00:03.92 bitrate= 749.7kbits/s
frame=  106 fps= 16 q=5.5 size=     373kB time=00:00:04.28 bitrate= 712.0kbits/s
frame=  114 fps= 16 q=6.3 size=     397kB time=00:00:04.57 bitrate= 711.3kbits/s
frame=  122 fps= 16 q=6.3 size=     424kB time=00:00:04.93 bitrate= 703.0kbits/s
frame=  129 fps= 16 q=6.4 size=     435kB time=00:00:05.29 bitrate= 673.1kbits/s
frame=  138 fps= 16 q=6.4 size=     464kB time=00:00:05.58 bitrate= 679.9kbits/s
frame=  145 fps= 16 q=4.9 size=     488kB time=00:00:05.94 bitrate= 672.1kbits/s
frame=  154 fps= 16 q=6.6 size=     500kB time=00:00:06.23 bitrate= 657.4kbits/s
frame=  161 fps= 16 q=6.9 size=     524kB time=00:00:06.59 bitrate= 651.4kbits/s
frame=  170 fps= 16 q=6.8 size=     553kB time=00:00:06.88 bitrate= 658.5kbits/s
frame=  177 fps= 16 q=6.6 size=     564kB time=00:00:07.24 bitrate= 637.8kbits/s
 speed=0.644x

Всего записей: 4 | Зарегистр. 07-01-2018 | Отправлено: 15:37 08-01-2018 | Исправлено: Serg2018nova, 16:16 08-01-2018
Открыть новую тему     Написать ответ в эту тему

На первую страницук этому сообщениюк последнему сообщению

Компьютерный форум Ru.Board » Компьютеры » Программы » FFmpeg


Реклама на форуме Ru.Board.

Powered by Ikonboard "v2.1.7b" © 2000 Ikonboard.com
Modified by Ru.Board
© Ru.Board 2000-2020

BitCoin: 1NGG1chHtUvrtEqjeerQCKDMUi6S6CG4iC

Рейтинг.ru