Перейти из форума на сайт.

НовостиФайловые архивы
ПоискАктивные темыТоп лист
ПравилаКто в on-line?
Вход Забыли пароль? Первый раз на этом сайте? Регистрация
Компьютерный форум Ru.Board » Компьютеры » Программы » FFmpeg

Модерирует : gyra, Maz

 Версия для печати • ПодписатьсяДобавить в закладки
На первую страницук этому сообщениюк последнему сообщению

Открыть новую тему     Написать ответ в эту тему

Baltazar500



Advanced Member
Редактировать | Профиль | Сообщение | Цитировать | Сообщить модератору

mediainfo :
 

Код:
Общее
Полное имя                               : D:\Торренты\Грань. Сезон 4\S04.E01.Ни тут, ни там.avi
Формат                                   : AVI
Формат/Информация                        : Audio Video Interleave
Размер файла                             : 405 Мбайт
Продолжительность                        : 43 м. 29 с.
Общий поток                              : 1300 Кбит/сек
Название фильма                          : Грань / За гранью. Сезон 4 / Fringe. Season 4 (2011)
Режиссёр                                 : miha2154
Программа кодирования                    : VirtualDubMod 1.5.10.2 (build 2540/release)
Библиотека кодирования                   : VirtualDubMod build 2540/release
Авторское право                          : специально для BitTorrent трекер RuTracker.org (ex torrents.ru)
 
Видео
Идентификатор                            : 0
Формат                                   : MPEG-4 Visual
Профиль формата                          : Advanced Simple@L5
Параметр BVOP формата                    : 2
Параметр QPel формата                    : Нет
Параметр GMC формата                     : Без точки перехода
Параметр матрицы формата                 : Default (MPEG)
Идентификатор кодека                     : XVID
Идентификатор кодека/Подсказка           : XviD
Продолжительность                        : 43 м. 29 с.
Битрейт                                  : 1103 Кбит/сек
Ширина                                   : 720 пикселей
Высота                                   : 400 пикселей
Соотношение сторон                       : 16:9
Частота кадров                           : 23,976 (24000/1001) кадра/сек
Цветовое пространство                    : YUV
Субдискретизация насыщенности            : 4:2:0
Битовая глубина                          : 8 бит
Тип развёртки                            : Прогрессивная
Метод сжатия                             : С потерями
Бит/(Пиксели*Кадры)                      : 0.160
Размер потока                            : 343 Мбайт (85%)
Библиотека кодирования                   : XviD 1.1.0 (UTC 2005-11-22)
 
Аудио
Идентификатор                            : 1
Формат                                   : AC-3
Формат/Информация                        : Audio Coding 3
Параметр Endianness формата              : Big
Идентификатор кодека                     : 2000
Продолжительность                        : 43 м. 29 с.
Вид битрейта                             : Постоянный
Битрейт                                  : 192 Кбит/сек
Каналы                                   : 2 канала
Расположение каналов                     : Front: L R
Частота                                  : 48,0 КГц
Частота кадров                           : 31,250 кадров/сек (1536 spf)
Битовая глубина                          : 16 бит
Метод сжатия                             : С потерями
Размер потока                            : 59,7 Мбайт (15%)
Выравнивание                             : Соединение по промежуткам
Продолжительность промежутка             : 160  мс. (3,84 видеокадра)
Время предзагрузки промежутка            : 640  мс.
Заголовок                                : Профессиональный (полное дублирование) ТВ3
ServiceKind/String                       : Complete Main

 

Код:
Stream mapping:
  Stream #0:1 -> #0:0 (copy)
Press [q] to stop, [?] for help
[ac3 @ 0000000000512f00] Application provided invalid, non monotonically increasing dts to muxer in stream 0: 1 >= 1
    Last message repeated 3 times
[ac3 @ 0000000000512f00] Application provided invalid, non monotonically increasing dts to muxer in stream 0: 2 >= 2
    Last message repeated 3 times
[ac3 @ 0000000000512f00] Application provided invalid, non monotonically increasing dts to muxer in stream 0: 3 >= 3
    Last message repeated 3 times
[ac3 @ 0000000000512f00] Application provided invalid, non monotonically increasing dts to muxer in stream 0: 4 >= 4
    Last message repeated 3 times
[ac3 @ 0000000000512f00] Application provided invalid, non monotonically increasing dts to muxer in stream 0: 5 >= 5
    Last message repeated 3 times
[ac3 @ 0000000000512f00] Application provided invalid, non monotonically increasing dts to muxer in stream 0: 6 >= 6
    Last message repeated 3 times
[ac3 @ 0000000000512f00] Application provided invalid, non monotonically increasing dts to muxer in stream 0: 7 >= 7
    Last message repeated 3 times
[ac3 @ 0000000000512f00] Application provided invalid, non monotonically increasing dts to muxer in stream 0: 8 >= 8
    Last message repeated 3 times
[ac3 @ 0000000000512f00] Application provided invalid, non monotonically increasing dts to muxer in stream 0: 9 >= 9
    Last message repeated 3 times
[ac3 @ 0000000000512f00] Application provided invalid, non monotonically increasing dts to muxer in stream 0: 10 >= 10
    Last message repeated 3 times
[ac3 @ 0000000000512f00] Application provided invalid, non monotonically increasing dts to muxer in stream 0: 11 >= 11
    Last message repeated 3 times
[ac3 @ 0000000000512f00] Application provided invalid, non monotonically increasing dts to muxer in stream 0: 12 >= 12
    Last message repeated 3 times
[ac3 @ 0000000000512f00] Application provided invalid, non monotonically increasing dts to muxer in stream 0: 13 >= 13
    Last message repeated 3 times
[ac3 @ 0000000000512f00] Application provided invalid, non monotonically increasing dts to muxer in stream 0: 14 >= 14
    Last message repeated 3 times
[ac3 @ 0000000000512f00] Application provided invalid, non monotonically increasing dts to muxer in stream 0: 15 >= 15
 
<...>
 

 
и далее лог поскипан т.к. там одно и то же. Аудидорожка в тоге нормально не извлекается.

Всего записей: 1735 | Зарегистр. 19-09-2011 | Отправлено: 03:27 12-02-2019
Открыть новую тему     Написать ответ в эту тему

На первую страницук этому сообщениюк последнему сообщению

Компьютерный форум Ru.Board » Компьютеры » Программы » FFmpeg


Реклама на форуме Ru.Board.

Powered by Ikonboard "v2.1.7b" © 2000 Ikonboard.com
Modified by Ru.Board
© Ru.Board 2000-2020

BitCoin: 1NGG1chHtUvrtEqjeerQCKDMUi6S6CG4iC

Рейтинг.ru