Перейти из форума на сайт.

НовостиФайловые архивы
ПоискАктивные темыТоп лист
ПравилаКто в on-line?
Вход Забыли пароль? Первый раз на этом сайте? Регистрация
Компьютерный форум Ru.Board » Компьютеры » Программы » VirtualDub (часть 5)

Модерирует : gyra, Maz

 Версия для печати • ПодписатьсяДобавить в закладки
На первую страницук этому сообщениюк последнему сообщению

Открыть новую тему     Написать ответ в эту тему

7755

Junior Member
Редактировать | Профиль | Сообщение | Цитировать | Сообщить модератору
General
ID                          : 6 (0x6)
Complete name               : I:\HBPVR\22-20190801230015-.mts
Format                      : BDAV
Format/Info                 : Blu-ray Video
File size                   : 939 MiB
Duration                    : 42 min 21 s
Overall bit rate mode       : Variable
Overall bit rate            : 3 098 kb/s
 
Video
ID                          : 3121 (0xC31)
Menu ID                     : 3120 (0xC30)
Format                      : AVC
Format/Info                 : Advanced Video Codec
Format version              : Version 2
Format profile              : Main@L3
Format settings             : CABAC / 4 Ref Frames
Format settings, CABAC      : Yes
Format settings, Reference  : 4 frames
Format settings, GOP        : M=4, N=24
Codec ID                    : 27
Duration                    : 42 min 21 s
Bit rate                    : 2 839 kb/s
Maximum bit rate            : 2 871 kb/s
Width                       : 720 pixels
Height                      : 576 pixels
Display aspect ratio        : 4:3
Frame rate                  : 25.000 FPS
Standard                    : PAL
Color space                 : YUV
Chroma subsampling          : 4:2:0
Bit depth                   : 8 bits
Scan type                   : Interlaced
Scan type, store method     : Separated fields
Scan order                  : Top Field First
Bits/(Pixel*Frame)          : 0.274
Stream size                 : 860 MiB (92%)
Color range                 : Limited
Color primaries             : BT.601 PAL
Transfer characteristics    : BT.470 System B/G
Matrix coefficients         : BT.470 System B/G
 
Audio
ID                          : 3122 (0xC32)
Menu ID                     : 3120 (0xC30)
Format                      : MPEG Audio
Format version              : Version 1
Format profile              : Layer 2
Codec ID                    : 4
Duration                    : 42 min 21 s
Bit rate mode               : Constant
Bit rate                    : 128 kb/s
Maximum bit rate            : 131 kb/s
Channel(s)                  : 2 channels
Sampling rate               : 48.0 kHz
Frame rate                  : 41.667 FPS (1152 SPF)
Compression mode            : Lossy
Delay relative to video     : -2 s 784 ms
Stream size                 : 38.8 MiB (4%)
Language                    : Russian
 
Menu
ID                          : 3120 (0xC30)
Menu ID                     : 3120 (0xC30)
Duration                    : 42 min 21 s
List                        : 3121 (0xC31) (AVC) / 3122 (0xC32) (MPEG Audio, Russian)
Language                    :  / Russian
Maximum bit rate            : 3002400

Всего записей: 46 | Зарегистр. 02-04-2019 | Отправлено: 17:13 26-07-2020 | Исправлено: 7755, 08:48 28-07-2020
Открыть новую тему     Написать ответ в эту тему

На первую страницук этому сообщениюк последнему сообщению

Компьютерный форум Ru.Board » Компьютеры » Программы » VirtualDub (часть 5)


Реклама на форуме Ru.Board.

Powered by Ikonboard "v2.1.7b" © 2000 Ikonboard.com
Modified by Ru.Board
© Ru.Board 2000-2020

BitCoin: 1NGG1chHtUvrtEqjeerQCKDMUi6S6CG4iC

Рейтинг.ru