Перейти из форума на сайт.

НовостиФайловые архивы
ПоискАктивные темыТоп лист
ПравилаКто в on-line?
Вход Забыли пароль? Первый раз на этом сайте? Регистрация
Компьютерный форум Ru.Board » Компьютеры » Программы » MPlayer | MPlayer2 | MPV | MEncoder

Модерирует : gyra, Maz

 Версия для печати • ПодписатьсяДобавить в закладки
На первую страницук этому сообщениюк последнему сообщению

Открыть новую тему     Написать ответ в эту тему

jsnjack



Member
Редактировать | Профиль | Сообщение | Цитировать | Сообщить модератору

General
 
Complete name                    : E:\Issledovatel.Otkritogo.Kosmosa.2010.x264.BDRip.1080p_Kinozal.TV-HD.mkv
 
Format                           : Matroska
 
File size                        : 5.29 GiB
 
Duration                         : 59mn 26s
 
Overall bit rate                 : 12.7 Mbps
 
Writing application              : Lavf52.94.0
 
Writing library                  : Lavf52.94.0
 
 
 
Video
 
ID                               : 1
 
Format                           : AVC
 
Format/Info                      : Advanced Video Codec
 
Format profile                   : High@L4.1
 
Format settings, CABAC           : Yes
 
Format settings, ReFrames        : 3 frames
 
Muxing mode                      : Container profile=Unknown@4.1
 
Codec ID                         : V_MPEG4/ISO/AVC
 
Duration                         : 59mn 26s
 
Bit rate                         : 11.7 Mbps
 
Width                            : 1 920 pixels
 
Height                           : 1 080 pixels
 
Display aspect ratio             : 16:9
 
Frame rate mode                  : Variable
 
Frame rate                       : 25.000 fps
 
Color space                      : YUV
 
Chroma subsampling               : 4:2:0
 
Bit depth                        : 8 bits
 
Scan type                        : MBAFF
 
Bits/(Pixel*Frame)               : 0.226
 
Stream size                      : 4.76 GiB (90%)
 
Title                            : Deep space explorer
 
Writing library                  : x264 core 113
 
Encoding settings                : cabac=1 / ref=3 / deblock=1:0:0 / analyse=0x3:0x133 / me=hex / subme=7 / psy=1 / psy_rd=1.00:0.00 / mixed_ref=1 / me_range=16 / chroma_me=1 / trellis=1 / 8x8dct=1 / cqm=0 / deadzone=21,11 / fast_pskip=1 / chroma_qp_offset=-2 / threads=6 / sliced_threads=0 / nr=0 / decimate=1 / interlaced=tff / constrained_intra=0 / bframes=3 / b_pyramid=1 / b_adapt=2 / b_bias=0 / direct=3 / weightb=1 / open_gop=0 / weightp=0 / keyint=250 / keyint_min=25 / scenecut=40 / intra_refresh=0 / rc_lookahead=40 / rc=2pass / mbtree=1 / bitrate=11700 / ratetol=1.0 / qcomp=0.60 / qpmin=10 / qpmax=51 / qpstep=4 / cplxblur=20.0 / qblur=0.5 / ip_ratio=1.40 / aq=1:1.00
 
 
 
Audio #1
 
ID                               : 2
 
Format                           : AC-3
 
Format/Info                      : Audio Coding 3
 
Mode extension                   : CM (complete main)
 
Codec ID                         : A_AC3
 
Duration                         : 59mn 26s
 
Bit rate mode                    : Constant
 
Bit rate                         : 512 Kbps
 
Channel(s)                       : 6 channels
 
Channel positions                : Front: L C R, Side: L R, LFE
 
Sampling rate                    : 48.0 KHz
 
Bit depth                        : 16 bits
 
Stream size                      : 218 MiB (4%)
 
Title                            : deep space lounge
 
 
 
Audio #2
 
ID                               : 3
 
Format                           : AC-3
 
Format/Info                      : Audio Coding 3
 
Mode extension                   : CM (complete main)
 
Codec ID                         : A_AC3
 
Duration                         : 59mn 26s
 
Bit rate mode                    : Constant
 
Bit rate                         : 512 Kbps
 
Channel(s)                       : 6 channels
 
Channel positions                : Front: L C R, Side: L R, LFE
 
Sampling rate                    : 48.0 KHz
 
Bit depth                        : 16 bits
 
Stream size                      : 218 MiB (4%)
 
Title                            : outer space atmosphere

Всего записей: 318 | Зарегистр. 10-02-2005 | Отправлено: 07:58 28-03-2011 | Исправлено: jsnjack, 10:34 28-03-2011
Открыть новую тему     Написать ответ в эту тему

На первую страницук этому сообщениюк последнему сообщению

Компьютерный форум Ru.Board » Компьютеры » Программы » MPlayer | MPlayer2 | MPV | MEncoder


Реклама на форуме Ru.Board.

Powered by Ikonboard "v2.1.7b" © 2000 Ikonboard.com
Modified by Ru.Board
© Ru.Board 2000-2020

BitCoin: 1NGG1chHtUvrtEqjeerQCKDMUi6S6CG4iC

Рейтинг.ru

Рейтинг.ru