Перейти из форума на сайт.

НовостиФайловые архивы
ПоискАктивные темыТоп лист
ПравилаКто в on-line?
Вход Забыли пароль? Первый раз на этом сайте? Регистрация
Компьютерный форум Ru.Board » Компьютеры » Программы » MPlayer | MPlayer2 | MPV | MEncoder

Модерирует : gyra, Maz

 Версия для печати • ПодписатьсяДобавить в закладки
На первую страницук этому сообщениюк последнему сообщению

Открыть новую тему     Написать ответ в эту тему

jsnjack



Member
Редактировать | Профиль | Сообщение | Цитировать | Сообщить модератору

General
Unique ID                        : 236561091136382674550403057324976679355 (0xB1F80247E715A05B8DB59C4E6772A9BB)
Complete name                    : Tunguska.Sibirsky.apokalipsis.2006.x264.HDTVRip_Kinozal.TV.mkv
Format                           : Matroska
File size                        : 1.13 GiB
Duration                         : 44mn 24s
Overall bit rate                 : 3 654 Kbps
Encoded date                     : UTC 2011-02-04 17:02:21
Writing application              : mkvmerge v3.2.0 ('Beginnings') built on Feb 12 2010 16:46:17
Writing library                  : libebml v0.7.9 + libmatroska v0.8.1
 
Video
ID                               : 1
Format                           : AVC
Format/Info                      : Advanced Video Codec
Format profile                   : High@L4.1
Format settings, CABAC           : Yes
Format settings, ReFrames        : 5 frames
Codec ID                         : V_MPEG4/ISO/AVC
Duration                         : 44mn 24s
Bit rate                         : 3 076 Kbps
Width                            : 1 280 pixels
Height                           : 720 pixels
Display aspect ratio             : 16:9
Frame rate                       : 25.000 fps
Color space                      : YUV
Chroma subsampling               : 4:2:0
Bit depth                        : 8 bits
Scan type                        : Progressive
Bits/(Pixel*Frame)               : 0.134
Stream size                      : 954 MiB (82%)
Writing library                  : x264 core 112 r1867 22bfd31
Encoding settings                : cabac=1 / ref=5 / deblock=1:0:0 / analyse=0x3:0x133 / me=umh / subme=7 / psy=1 / psy_rd=1.00:0.00 / mixed_ref=1 / me_range=16 / chroma_me=1 / trellis=1 / 8x8dct=1 / cqm=0 / deadzone=21,11 / fast_pskip=0 / chroma_qp_offset=-2 / threads=6 / sliced_threads=0 / nr=0 / decimate=1 / interlaced=0 / constrained_intra=0 / bframes=3 / b_pyramid=2 / b_adapt=1 / b_bias=0 / direct=1 / weightb=1 / open_gop=0 / weightp=1 / keyint=250 / keyint_min=25 / scenecut=40 / intra_refresh=0 / rc_lookahead=40 / rc=2pass / mbtree=1 / bitrate=3076 / ratetol=1.0 / qcomp=0.60 / qpmin=0 / qpmax=51 / qpstep=4 / cplxblur=20.0 / qblur=0.5 / ip_ratio=1.40 / aq=1:1.00
 
Audio #1
ID                               : 2
Format                           : AC-3
Format/Info                      : Audio Coding 3
Mode extension                   : CM (complete main)
Codec ID                         : A_AC3
Duration                         : 44mn 24s
Bit rate mode                    : Constant
Bit rate                         : 192 Kbps
Channel(s)                       : 2 channels
Channel positions                : Front: L R
Sampling rate                    : 48.0 KHz
Bit depth                        : 16 bits
Compression mode                 : Lossy
Stream size                      : 61.0 MiB (5%)
Title                            : tunguska_by_nyctalus
Language                         : Russian
 
Audio #2
ID                               : 3
Format                           : AC-3
Format/Info                      : Audio Coding 3
Mode extension                   : CM (complete main)
Codec ID                         : A_AC3
Duration                         : 44mn 24s
Bit rate mode                    : Constant
Bit rate                         : 384 Kbps
Channel(s)                       : 6 channels
Channel positions                : Front: L C R, Side: L R, LFE
Sampling rate                    : 48.0 KHz
Bit depth                        : 16 bits
Compression mode                 : Lossy
Stream size                      : 122 MiB (11%)
Title                            : german
Language                         : German

Всего записей: 318 | Зарегистр. 10-02-2005 | Отправлено: 14:36 02-04-2011
Открыть новую тему     Написать ответ в эту тему

На первую страницук этому сообщениюк последнему сообщению

Компьютерный форум Ru.Board » Компьютеры » Программы » MPlayer | MPlayer2 | MPV | MEncoder


Реклама на форуме Ru.Board.

Powered by Ikonboard "v2.1.7b" © 2000 Ikonboard.com
Modified by Ru.Board
© Ru.Board 2000-2020

BitCoin: 1NGG1chHtUvrtEqjeerQCKDMUi6S6CG4iC

Рейтинг.ru

Рейтинг.ru