Перейти из форума на сайт.

НовостиФайловые архивы
ПоискАктивные темыТоп лист
ПравилаКто в on-line?
Вход Забыли пароль? Первый раз на этом сайте? Регистрация
Компьютерный форум Ru.Board » Компьютеры » Программы » MPlayer | MPlayer2 | MPV | MEncoder

Модерирует : gyra, Maz

 Версия для печати • ПодписатьсяДобавить в закладки
Страницы: 1 2 3 4 5 6 7 8 9 10 11 12 13 14 15 16 17 18 19 20 21 22 23 24 25 26 27 28 29 30 31 32 33 34 35 36 37 38 39 40 41 42 43 44 45 46 47 48 49 50 51 52 53 54 55 56 57 58 59 60 61 62 63 64 65 66 67 68 69 70 71 72 73 74 75 76

Открыть новую тему     Написать ответ в эту тему

Nuck



Member
Редактировать | Профиль | Сообщение | Цитировать | Сообщить модератору

Медиаплеер с открытым исходным кодом, относящийся к свободному программному обеспечению. Поддерживает более чем 192 видео и 85 аудио форматов. Работает на большинстве современных операционных систем (Linux, Windows, Mac OS X, FreeBSD и т.п.), изначально разрабатывался для Linux. Поддерживает разнообразные устройства вывода изображения, такие как DirectX, VESA, SDL, X11, Quartz Compositor, включая такое своеобразное устройство вывода как ASCII-арт, то есть имеется возможность смотреть видео в текстовом режиме. Большинство аудио и видео форматов поддерживаются родной для MPlayer свободной библиотекой libavcodec, использующей код проекта FFmpeg, которой вполне достаточно для проигрывания DVD дисков и многих XviD/DivX файлов, однако некоторые файлы в проприетарном формате могут потребовать внешних DLL библиотек, поддержка которых также предусмотрена.
Официально последние версии MPlayer доступны только в виде исходников, поэтому рекомендуется пользоваться неофициальными сборками от сторонних авторов, либо самому компилировать файлы плеера из исходников. Поскольку плеер является консольным (не имеет графического интерфейса), для комфортной работы с ним также понадобится какая-нибудь графическая оболочка (GUI), а для поддержки дополнительных форматов необходимо будет установить пакет бинарных кодеков.
MPlayer for Windows - универсальная сборка от LoRd MuldeR. Включает последние билды MPlayer от Gianluigi Tiesi, оптимизированные для различных CPU, две самых популярных графических оболочки SMPlayer и MPUI и пакет бинарных кодеков (в полной версии). Обновляется, по крайней мере, раз в месяц, включает автозагрузку. Упрощенная сборка содержит только MPlayer и MPUI.
Новичкам дальше читать необязательно (а то опухнуть можно, если увлечься).

Другие сборки: Gianluigi Tiesi, william0wang, BakLAN, другие
 
Графические оболочки для MPlayer: SMPlayer, MPUI, MPUI-hcb, MPlayerGUI, MPF, rulesPlayer, Kliper, другие
 
Графические оболочки для MEncoder: MEninX, gui4menc0, MEncoder264, MeWiG, X-Mencoder, другие (см. также здесь и здесь). Сам MEncoder как правило распространяется вместе с ними.
 
Дополнительные шрифты для OSD.
 
Скрипт по "нарезке" фрагментов фильмов при помощи mencoder-а и ffmpeg-а для *nix систем
Внимание! Не рекомендуется пользоваться русской версией оф. сайта, т.к. она уже сильно устарела.



Доступен выпуск открытого видеоплеера MPV, несколько лет назад ответвившегося от кодовой базы проекта MPlayer2. В MPV основное внимание уделяется разработке новых возможностей и обеспечению постоянного бэкпортирования новшеств из репозиториев MPlayer, не заботясь о сохранении совместимости с MPlayer. Код MPV распространяется под лицензией LGPLv2.1+, некоторые части остаются под GPLv2, но процесс перехода на LGPL почти завершён и для отключения остающегося GPL-кода можно использовать опцию "--enable-lgpl".
Сайт: https://mpv.io/
Скачать: https://mpv.io/installation/
GUI для MPV: MPV-EASY | SMPlayer | mpv.net
Актуальные билды под Windows: https://sourceforge.net/projects/mpv-player-windows/files/

Голосование "Лучший плеер для видео 2018"

Всего записей: 360 | Зарегистр. 29-10-2001 | Отправлено: 12:54 25-06-2003 | Исправлено: Maz, 15:57 22-11-2019
0Vovan0



Silver Member
Редактировать | Профиль | Сообщение | ICQ | Цитировать | Сообщить модератору

Цитата:
то же самое:  
ffmpeg -i <input_file> -vn <output_file>

ну так звук оно всеравно перекодирует - потеря и во времени и в качестве
пробовал ffmpeg -i <input.avi> -ac copy <out.mp3> - программа допустила недопустимое и будет закрыта, в видео звук есно мп3 , аналогично пробовал для аас - тот же рез-т, ffmpeg обновил до последней 8797 - тож самое
 

Цитата:
mplayer -vc null -vo null -ao pcm -benchmark file.avi  
 

с таким же успехом можно пользовать ffmpeg -i input.avi output.wav - мне нужно не пережимать аудио а вытащить его..
 

Цитата:
для dvd:

к слову, ffmpeg умеет читать стурктуру двд, главы и тп ?

Всего записей: 2364 | Зарегистр. 15-07-2005 | Отправлено: 01:16 05-05-2007
sda00



Advanced Member
Редактировать | Профиль | Сообщение | ICQ | Цитировать | Сообщить модератору
ffmpeg -i /media/dvd/VIDEO_TS/VTS_01_1.VOB audio.mp3
 
по крайней мере это делает mp3... ffplay читает vob даже с шифрованных css дисков при наличии libdvdcss
 
ffmpeg -i /media/dvd/VIDEO_TS/VTS_01_1.VOB -acodec copy audio.ac3
 
Добавлено:
выбор аудиодорожки:
 
ffmpeg -i /media/dvd/VIDEO_TS/VTS_01_1.VOB -acodec copy -map 0:2 audio.ac3

Всего записей: 928 | Зарегистр. 15-02-2004 | Отправлено: 01:24 05-05-2007 | Исправлено: sda00, 01:27 05-05-2007
Nicka_Grey

Advanced Member
Редактировать | Профиль | Сообщение | ICQ | Цитировать | Сообщить модератору
Меня кстати, тоже интересует момент, как вытащить звук такой как есть, пережать видео, и потом назад запихнуть звук обратно.
В идеале конечно еще бы возможность выдрать все звуковые дорожки, а после запихнуть все их в пережатое видео

Всего записей: 1282 | Зарегистр. 04-01-2003 | Отправлено: 01:31 05-05-2007
sda00



Advanced Member
Редактировать | Профиль | Сообщение | ICQ | Цитировать | Сообщить модератору
так вот же решение:
 
ffmpeg -i /media/dvd/VIDEO_TS/VTS_01_1.VOB -acodec copy -map 0:2 audio.ac3
 
пользуя -map  - вытягиваем всё как есть без потерь, потом стандартно mencoder-ом добавляем аудио...
если звук не в ac3 - то просто меняем audio.ac3 на например audio.mp3 сохраняя -acodec copy
 
imho - всё...

Всего записей: 928 | Зарегистр. 15-02-2004 | Отправлено: 01:35 05-05-2007 | Исправлено: sda00, 01:41 05-05-2007
Nicka_Grey

Advanced Member
Редактировать | Профиль | Сообщение | ICQ | Цитировать | Сообщить модератору
sda00
ага, ну вроде как выдрать звук - понял, спасибо большое, буду пробовать.
Сейчас почитываю доку по mencoder-у, но пока не нашел как с его помощью загнать несколько звуковых дорожек в один фильм
Метр, подскажи плз

Всего записей: 1282 | Зарегистр. 04-01-2003 | Отправлено: 01:42 05-05-2007
0Vovan0



Silver Member
Редактировать | Профиль | Сообщение | ICQ | Цитировать | Сообщить модератору

Цитата:
-acodec copy

, блин, написал бы сразу проблем небыло бы, я -ac указывал - а это не кодек а каналы
 
что есть ключ -map и как он связан с навигацией по двд( я в принципе имел ввиду как вытянуть с двдшки звук только из третьей главы наример, как mencoder -chapter 3-3)

Всего записей: 2364 | Зарегистр. 15-07-2005 | Отправлено: 01:51 05-05-2007
sda00



Advanced Member
Редактировать | Профиль | Сообщение | ICQ | Цитировать | Сообщить модератору
читаем
http://www.mplayerhq.hu/DOCS/HTML-single/ru/MPlayer.html
http://www.mplayerhq.hu/DOCS/HTML-single/en/MPlayer.html
 
14.1.12. Мультиплексирование
 
Теперь, после того как Вы кодировали видео, скорее всего, Вы захотите мультиплексировать его с одним или несколькими аудиопотоками в такие видео контейнеры как AVI, MPEG, Matroska или NUT. На данный момент встроенная поддержка вывода аудио и видео в MEncoder есть только для форматов контейнеров MPEG и AVI. Например:  
mencoder -oac copy -ovc copy -o выходной_фильм.avi \
    -audiofile исходный_звук.mp2 исходное_видео.avi
 
Это объединит видеофайл исходное_видео.avi и аудиофайл исходный_звук.mp2 в AVI файл выходной_фильм.avi. Эта команда работает с MPEG-1 слой I, II и III (более известный как MP3) аудио, WAV, а также с некоторыми иными форматами аудио.  
 
MEncoder обладает экспериментальной поддержкой libavformat — библиотеки из проекта FFmpeg, поддерживающей мультиплексирование и демультиплексирование множества контейнеров. Например:  
mencoder -oac copy -ovc copy -o выходной_фильм.asf \
    -audiofile исходный_звук.mp2 исходное_видео.avi \
    -of lavf -lavfopts format=asf
 
Это сделает то же самое, что и предыдущий пример, но выходным контейнером будет ASF. Пожалуйста, обратите внимание, что эта поддержка весьма экспериментальна (но становится лучше c каждым днём), и будет работать только в случае компиляции MPlayer с включенной поддержкой libavformat (что означает, что в большинстве случаев бинарная версия из пакетов не будет работать).
****************************
 
и тд
 
 
 
Добавлено:
sda@black:/mnt/hda3/Video> ffmpeg -i /media/dvd/VIDEO_TS/VTS_01_1.VOB -acodec copy -map 0:2 audio.ac3
 
FFmpeg version SVN-r8747, Copyright (c) 2000-2007 Fabrice Bellard, et al.
  configuration: --prefix=/usr/local --mandir=/usr/share/man --enable-libmp3lame --enable-libogg --enable-libvorbis --enable-libfaad --enable-xvid --enable-liba52 --enable-libdts --enable-pp --enable-gpl --enable-gprof --enable-x264 --enable-amr_nb --enable-pthreads --enable-x11grab
  libavutil version: 49.4.0
  libavcodec version: 51.40.3
  libavformat version: 51.12.1
  built on Apr 18 2007 05:50:45, gcc: 4.1.2
Input #0, mpeg, from '/media/dvd/VIDEO_TS/VTS_01_1.VOB':
  Duration: 00:25:11.8, start: 0.287267, bitrate: 5680 kb/s
  Stream #0.0[0x1e0]: Video: mpeg2video, yuv420p, 720x576, 7500 kb/s, 25.00 fps(r)
  Stream #0.1[0x80]: Audio: ac3, 48000 Hz, 5:1, 448 kb/s
  Stream #0.2[0x81]: Audio: ac3, 48000 Hz, 5:1, 384 kb/s
  Stream #0.3[0x82]: Audio: ac3, 48000 Hz, stereo, 96 kb/s
File 'audio.ac3' already exists. Overwrite ? [y/N] y
Output #0, ac3, to 'audio.ac3':
  Stream #0.0: Audio: ac3, 48000 Hz, 5:1, 384 kb/s
Stream mapping:
  Stream #0.2 -> #0.0
Press q to stop encoding
size=   37988kB time=810.4 bitrate= 384.0kbits/s    
video:0kB audio:37988kB global headers:0kB muxing overhead 0.000000%
Received signal 2: terminating.
 
********************************
 
разбираем "на пальцах". выше - dvd с тремя аудио дорожками и одной видео:
  Stream #0.0[0x1e0]: Video: mpeg2video, yuv420p, 720x576, 7500 kb/s, 25.00 fps(r)
  Stream #0.1[0x80]: Audio: ac3, 48000 Hz, 5:1, 448 kb/s
  Stream #0.2[0x81]: Audio: ac3, 48000 Hz, 5:1, 384 kb/s
  Stream #0.3[0x82]: Audio: ac3, 48000 Hz, stereo, 96 kb/s
 
 
а команда в самом верху делает копию второй аудиодорожки в audio.ac3 (без потерь)
соответственно можно скопировать все 3 аудиодорожки а потом - запихать их в пережатую (надеюсь, что x264-м кодеком) авишку, огг или что-там-душа-просит  
 
Добавлено:

Цитата:
( я в принципе имел ввиду как вытянуть с двдшки звук только из третьей главы наример, как mencoder -chapter 3-3)

 
так?
 
ffmpeg -i /media/dvd/VIDEO_TS/VTS_03_3.VOB -acodec copy -map 0:1 audio.ac3
 
???

Всего записей: 928 | Зарегистр. 15-02-2004 | Отправлено: 01:51 05-05-2007 | Исправлено: sda00, 02:09 05-05-2007
0Vovan0



Silver Member
Редактировать | Профиль | Сообщение | ICQ | Цитировать | Сообщить модератору
sda00

Цитата:
так?  
 
ffmpeg -i /media/dvd/VIDEO_TS/VTS_03_3.VOB -acodec copy -map 0:1 audio.ac3  
 
???

нет, ты совсем нетак понял.
Вопрос - умеет ли ffmpeg читать структуру двд, т.е не отдельные *.vob файлы понимать, а как mplayer dvd://
 
VTS_03_3 - это не третья глава DVD, а Video Title Set № 3 - как mplayer dvd://3
В данном случае VTS_03_3.VOB это в принципе и моджет быть третья глава третьего тайтла, но чаще в например VTS_01_1 содержатся несколько глав, да и VTS_01_1 - VTS_01_2 - VTS_01_3 делаются из-за лимита разммера файла в один гигабайт, так что часть главы может быть в конце первого файла и в начале второго, в общем это дло неподходит

Всего записей: 2364 | Зарегистр. 15-07-2005 | Отправлено: 02:42 05-05-2007
sda00



Advanced Member
Редактировать | Профиль | Сообщение | ICQ | Цитировать | Сообщить модератору
0Vovan0
может туплю, но:
 
-dumpstream -dumpfile file.vob
 
c указанием title/chapter???
 
Добавлено:
mplayer dvd://3 -chapter 3 -dumpstream -dumpfile file.vob
ffmpeg -i file.vob -acodec copy -map 0:1 audio.ac3
 
????

Всего записей: 928 | Зарегистр. 15-02-2004 | Отправлено: 03:53 05-05-2007
0Vovan0



Silver Member
Редактировать | Профиль | Сообщение | ICQ | Цитировать | Сообщить модератору
sda00

Цитата:
mplayer dvd://3 -chapter 3 -dumpstream -dumpfile file.vob  
ffmpeg -i file.vob -acodec copy -map 0:1 audio.ac3  
 

через попу
как я понимаю ответ на вопрос
Цитата:
умеет ли ffmpeg читать структуру двд

отрицательный, сделать так как выше я и сам догадался, правда когда понадобилось помучался и всетаки заюзал обычный dvd audiо рипер

Всего записей: 2364 | Зарегистр. 15-07-2005 | Отправлено: 04:09 05-05-2007
Delphi6



BANNED
Редактировать | Профиль | Сообщение | Цитировать | Сообщить модератору
Прошу помощи тех кто уже таким занимался или хотя бы знает как можно все сделать. Задача заключалась в нарезке скриншота из мувика, мне посоветовали воспользоваться данной программы, и мне действительно понравилось качество и количество параметров которые данная программа поддерживает. Для создания одно скриншота я пользовался простой командой:
 
/usr/local/bin/mplayer -ss 10 -frames 1 -vo jpeg:quality=100:outdir=screenshot -nosound  file.wmv
 
Так как мне нужно не один фрейм а много, для простоты допустим что все фреймы которые надо сохранить находятся на одинаково расстоянии от друг друга (хотя желательно разное значение), например 60 секунд. Конечно я могу вызвать данную команду каждый раз с разными значениями -ss но мне не верится что у это программы нет возможности это автоматизировать (тем самим я сэкономлю время которое будет тратится на каждый ее запуск, и та проблема что я не знаю как определить размер мувика что бы знать сколько раз можно вызывать mplayer с сдвигом +10 секунд).
 
Спасибо
 
п.с. Команды я искал вот в это доке: http://www.mplayerhq.hu/DOCS/man/en/mplayer.1.html
 
Добавлено:
При попытке воспользоваться параметром -fps ничего не вышло, он влияет только на визуальное отображение количества кадров в секунду. А мне нужно что бы был я мог изменить шаг фреймов (по дэфолту он равен 1)
 
/usr/local/bin/mplayer -ss 10 -fps 0.1 -frames 5 -vo jpeg:quality=100:outdir=screenshot -nosound  file.wmv  
 
Добавлено:
И даже если взять как пример что все кадры будут отдельно нарезаться (отдельными командами с разными -ss параметрами) как можно задать имя конечного файла? Так как по дефолту прога их именует одинаково, и команды:
 
/usr/local/bin/mplayer -ss 10 -frames 1 -vo jpeg:quality=100:outdir=screenshot -nosound  file.wmv  
 
/usr/local/bin/mplayer -ss 70 -frames 1 -vo jpeg:quality=100:outdir=screenshot -nosound  file.wmv  
 
будут на конце иметь один и тот же 00000001.jpeg имя файла. Параметр -vo не сработал
 
Добавлено:
Вот нашел для визуальной части &#8722;sstep но для консольной строки не подходит

Всего записей: 2631 | Зарегистр. 06-07-2004 | Отправлено: 06:47 06-05-2007 | Исправлено: Delphi6, 06:49 06-05-2007
Delphi6



BANNED
Редактировать | Профиль | Сообщение | Цитировать | Сообщить модератору
Вопрос закрываю за не надобностью, сменил MPlayer на ffmpeg который как раз предназначен для быстрой работы с видео.

Всего записей: 2631 | Зарегистр. 06-07-2004 | Отправлено: 10:57 06-05-2007
tolyn77



Advanced Member
Редактировать | Профиль | Сообщение | Цитировать | Сообщить модератору
а что это означает?
<vo_directx><ERROR>UpdateOverlay failed
<vo_directx><ERROR>Overlay:x1:1367,y1:426,x2:1280,y2:698,w:-87,h:272
<vo_directx><ERROR>invalid rectangle
 
у меня два экрана эти ошибки появляются когда экран переносишь на второй дополнительный монитор.

Всего записей: 1495 | Зарегистр. 07-09-2004 | Отправлено: 08:17 07-05-2007
sda00



Advanced Member
Редактировать | Профиль | Сообщение | ICQ | Цитировать | Сообщить модератору

Цитата:
у меня два экрана  

хех... мне бы 2 экрана...

Всего записей: 928 | Зарегистр. 15-02-2004 | Отправлено: 11:54 07-05-2007
Nicka_Grey

Advanced Member
Редактировать | Профиль | Сообщение | ICQ | Цитировать | Сообщить модератору
вот пробую выдрать звуковые дорожки
1-ю номально скопировал
пробую 2-ю
ffmpeg -i VTS_01_1.VOB -acodec copy -map 0:2 audio2.ac3
получаю

Цитата:
 
ffmpeg -i VTS_01_1.VOB -acodec copy -map 0:2 audio2.ac3
FFmpeg version SVN-r8891, Copyright (c) 2000-2007 Fabrice Bellard, et al.
  configuration: --enable-gpl --enable-pp --enable-swscaler --enable-pthreads --enable-liba52 --enable-avisynth --en
able-libamr-nb --enable-libamr-wb --enable-libdts --enable-libfaac --enable-libfaad --enable-libgsm --enable-libmp3l
ame --enable-libnut --enable-libogg --enable-libtheora --enable-libvorbis --enable-x264 --enable-xvid --cpu=i686 --e
nable-memalign-hack --extra-ldflags=-static
  libavutil version: 49.4.0
  libavcodec version: 51.40.4
  libavformat version: 51.12.1
  built on May  5 2007 14:58:05, gcc: 4.3.0 20070330 (experimental)
Input #0, mpeg, from 'VTS_01_1.VOB':
  Duration: 00:19:28.6, start: 0.052000, bitrate: 7350 kb/s
  Stream #0.0[0x1e0]: Video: mpeg2video, yuv420p, 720x576, 7500 kb/s, 25.00 fps(r)
  Stream #0.1[0x80]: Audio: ac3, 48000 Hz, 5:1, 384 kb/s
  Stream #0.2[0x82]: Audio: ac3
  Stream #0.3[0x81]: Audio: ac3
Output #0, ac3, to 'd:\audio2.ac3':
  Stream #0.0: Audio: ac3
Stream mapping:
  Stream #0.2 -> #0.0
[ac3 @ 009E5E90]sample rate not set
Could not write header for output file #0 (incorrect codec parameters ?)
 

Всего записей: 1282 | Зарегистр. 04-01-2003 | Отправлено: 16:27 07-05-2007
sda00



Advanced Member
Редактировать | Профиль | Сообщение | ICQ | Цитировать | Сообщить модератору
Nicka_Grey
посмотри  
mplayer -v VTS_01_1.VOB  
на этот рейт и дай его
 
ffmpeg -i VTS_01_1.VOB -ab битрейт -acodec copy -map 0:2 audio2.ac3

Всего записей: 928 | Зарегистр. 15-02-2004 | Отправлено: 21:57 07-05-2007
dix75



Junior Member
Редактировать | Профиль | Сообщение | Цитировать | Сообщить модератору
Использую MPUI  
При вызове диспечера задач текущий фильм вылетает (т.е текущая сцена пропадает и фильм идет заново)
так и должно быть?

Всего записей: 157 | Зарегистр. 08-12-2005 | Отправлено: 00:56 12-05-2007
Seymour

BANNED
Редактировать | Профиль | Сообщение | Цитировать | Сообщить модератору
Люди, помогите подобрать самую пресамую функциональную (и красивую вместе с тем) GUI-шку, чтоб все фичи были доступны, а то в стандартной оболочке похоже часть опций отсутствует, а через конфиг плеер настраивать это для меня вообще не вариант..
 
Добавлено:
И еще почему на оф. сайте в качестве лучшего способа установки плеера рекомендуют самому производить компиляцию из исходных текстов. Сборки, которые там выложены, они кривые что-ли? И как его компилировать?
 
Добавлено:
Кстати у меня под 98-ым виндовозом GUI-шка не пашет. Консоль работает, а GUI не запускается..

Всего записей: 1089 | Зарегистр. 07-12-2006 | Отправлено: 09:31 19-05-2007
0Vovan0



Silver Member
Редактировать | Профиль | Сообщение | ICQ | Цитировать | Сообщить модератору

Цитата:
Люди, помогите подобрать самую пресамую функциональную (и красивую вместе с тем) GUI-шку

присоединяюсь к предложению
а если серьезно нету такой(  
либо простенькая MPUI, либо продвинутые но несколько глючные rulesplayer и SMPlayer  
 

Цитата:
И еще почему на оф. сайте в качестве лучшего способа установки плеера рекомендуют самому производить компиляцию из исходных текстов. Сборки, которые там выложены, они кривые что-ли? И как его компилировать?

сборки там нормальные, но некоторые кодеки, довольно режкие в принципе, не подхватываются.
В частности просмотреть 3gp и rm со звуком мне удалось только со сборкой от кельтик_друида.
А собирать мплеер нас обещал научить sda00 , но так и не научил
 

Цитата:
Кстати у меня под 98-ым виндовозом GUI-шка не пашет. Консоль работает, а GUI не запускается..

gmplayer? его и на хр долго портировали, о 98 наверно не думали, да и фигня это ане гуй

Всего записей: 2364 | Зарегистр. 15-07-2005 | Отправлено: 14:27 19-05-2007
sda00



Advanced Member
Редактировать | Профиль | Сообщение | ICQ | Цитировать | Сообщить модератору
0Vovan0
ну сорри, не успел до полного сноса Винды...
 
читаем секцию 12.4  
http://www.mplayerhq.hu/DOCS/HTML-single/ru/MPlayer.html#windows
http://mplayerhq.hu/MPlayer/releases/win32/contrib/MPlayer-MinGW-Howto.txt
 
если хватит денег на Windows и будет время - постараюсь

Всего записей: 928 | Зарегистр. 15-02-2004 | Отправлено: 18:45 19-05-2007
Открыть новую тему     Написать ответ в эту тему

Страницы: 1 2 3 4 5 6 7 8 9 10 11 12 13 14 15 16 17 18 19 20 21 22 23 24 25 26 27 28 29 30 31 32 33 34 35 36 37 38 39 40 41 42 43 44 45 46 47 48 49 50 51 52 53 54 55 56 57 58 59 60 61 62 63 64 65 66 67 68 69 70 71 72 73 74 75 76

Компьютерный форум Ru.Board » Компьютеры » Программы » MPlayer | MPlayer2 | MPV | MEncoder


Реклама на форуме Ru.Board.

Powered by Ikonboard "v2.1.7b" © 2000 Ikonboard.com
Modified by Ru.Board
© Ru.Board 2000-2020

BitCoin: 1NGG1chHtUvrtEqjeerQCKDMUi6S6CG4iC

Рейтинг.ru